android
Prev Previous Post   Next Post Next
  #1  
Old 11-14-2011, 12:26 PM
Asteest Asteest is offline
Junior Member
 
Join Date: Apr 2011
Posts: 30
Default Very bad video quality !

I have a problem with my video quality.It's bad,very bad,I remember that when I watched first time on j3,the video was very good, now its a disaster!

Using SUPER ,with the help of the sticky thread on this forum

I attached samples and I'll specify movie details(the original movie are high quality) :

Captain America

Format : AVC Format/Info : Advanced Video Codec Format profile : Baseline@L2.2 Format settings, CABAC : No Format settings, ReFrames : 1 frame Codec ID : H264 Duration : 2h 4mn Bit rate : 651 Kbps Width : 480 pixels Height : 272 pixels Display aspect ratio : 16:9 Frame rate : 23.976 fps
Transformers Dark of the Moon

Format : AVC Format/Info : Advanced Video Codec Format profile : Baseline@L2.2 Format settings, CABAC : No Format settings, ReFrames : 1 frame Codec ID : H264 Duration : 2h 34mn Bit rate : 258 Kbps Width : 480 pixels Height : 272 pixels Display aspect ratio : 16:9 Frame rate : 23.976 fps
Pirates Of The Caribbean On Stranger Tides

Format : AVC Format/Info : Advanced Video Codec Format profile : Baseline@L2.2 Format settings, CABAC : No Format settings, ReFrames : 1 frame Format settings, GOP : M=1, N=24 Codec ID : H264 Duration : 1h 8mn Bit rate : 630 Kbps Width : 480 pixels Height : 272 pixels Display aspect ratio : 2.35:1 Frame rate : 23.976 fps Color space : YUV Chroma subsampling : 4:2:0 Bit depth : 8 bits Scan type : Progressive Bits/(Pixel*Frame) : 0.201 Stream size : 308 MiB (73%) Writing library : SUPER(C) by eRightSoft
WALL-E

ID : 0 Format : AVC Format/Info : Advanced Video Codec Format profile : Baseline@L2.2 Format settings, CABAC : No Format settings, ReFrames : 1 frame Codec ID : H264 Duration : 1h 38mn Bit rate : 634 Kbps Width : 480 pixels Height : 272 pixels Display aspect ratio : 16:9 Frame rate : 23.976 fps Color space : YUV Chroma subsampling : 4:2:0 Bit depth : 8 bits Scan type : Progressive Bits/(Pixel*Frame) : 0.202 Stream size : 445 MiB (66%) Writing library : x264 H.264/MPEG-4 AVC codec / created.by.SUPER(C).eRightSoftWhat is wrong?
Bitrate too low?
Or it is because of some of my UI? I seriously doubt it


Last edited by skip252; 11-14-2011 at 01:18 PM. Reason: Thank you for the cleanup
Reply With Quote

Advertisement [Remove Advertisement]

 

Thread Tools Search this Thread
Search this Thread:

Advanced Search
Display Modes

Posting Rules
You may not post new threads
You may not post replies
You may not post attachments
You may not edit your posts

BB code is On
Smilies are On
[IMG] code is On
HTML code is Off

Forum Jump



All times are GMT -5. The time now is 10:50 PM.